Résultats de 1 à 3 sur 3
  1. #1
    Avatar de GamePC
    Inscrit
    septembre 2018
    Messages
    439
    Pouvoir de réputation
    1

    Par défaut Jurassic.World.Fallen.Kingdom.2018.MULTi.TRUEFRENC H.2160p.BluRay.Remux.HEVC.DTS-X.7.1-PORTAX




    Code:
    Release name:
    Jurassic.World.Fallen.Kingdom.2018.MULTi.TRUEFRENCH.2160p.BluRay.Remux.HEVC.DTS-X.7.1-PORTAX
    
    
    Source(s):
    Jurassic World 2 El Reino Caido(2018) 1080p FULL BLURAY Español DTS-HD Ingles DTS-HD AVC Eml HDTeam (AUDiO, SUBS, CHAPTERS)
    Jurassic.World.Fallen.Kingdom.2018.COMPLETE.UHD.BLURAY-TERMiNAL (ViDEO)
    
    
    General
    Unique ID : 276757519394053775486961622774457078547 (0xD0358F346A25D6AFEC8E1C8F6AA89313)
    Complete name : Jurassic.World.Fallen.Kingdom.2018.MULTi.TRUEFRENCH.2160p.BluRay.Remux.HEVC.DTS-X.7.1-PORTAX.mkv
    Format : Matroska
    Format version : Version 1
    File size : 45.4 GiB
    Duration : 2h 8mn
    Overall bit rate : 50.6 Mbps
    Encoded date : UTC 2018-09-26 21:15:45
    Writing application : mkvmerge v26.0.0 ('In The Game') 64-bit
    Writing library : libebml v1.3.6 + libmatroska v1.4.9
    
    
    Video
    ID : 1
    Format : HEVC
    Format/Info : High Efficiency Video Coding
    Format profile : Main [email protected]@High
    Codec ID : V_MPEGH/ISO/HEVC
    Duration : 2h 8mn
    Bit rate : 44.3 Mbps
    Width : 3 840 pixels
    Height : 2 160 pixels
    Display aspect ratio : 16:9
    Frame rate mode : Constant
    Frame rate : 23.976 (24000/1001) fps
    Color space : YUV
    Chroma subsampling : 4:2:0
    Bit depth : 10 bits
    Bits/(Pixel*Frame) : 0.223
    Stream size : 39.7 GiB (87%)
    Title : HEVC Video / 44265 kbps / 2160p / 23.976 fps / 16:9 / Main 10 @ Level 5.1 @ High / 4:2:0 / 10 bits / HDR10 / BT.2020
    Language : English
    Default : Yes
    Forced : No
    Color range : Limited
    Color primaries : BT.2020
    Matrix coefficients : BT.2020 non-constant
    
    
    Audio #1
    ID : 2
    Format : DTS
    Format/Info : Digital Theater Systems
    Format profile : HRA / Core
    Mode : 16
    Format settings, Endianness : Big
    Codec ID : A_DTS
    Duration : 2h 8mn
    Bit rate mode : Constant
    Bit rate : 2 046 Kbps / 1 509 Kbps
    Channel(s) : 8 channels / 6 channels
    Channel positions : Front: L C R, Side: L R, Back: L R, LFE / Front: L C R, Side: L R, LFE
    Sampling rate : 48.0 KHz
    Frame rate : 93.750 fps (512 spf)
    Bit depth : 24 bits
    Compression mode : Lossy
    Stream size : 1.83 GiB (4%)
    Title : DTS-HD High-Res Audio / 7.1 / 48 kHz / 2046 kbps / 24-bit
    Language : French
    Default : Yes
    Forced : No
    
    
    Audio #2
    ID : 3
    Format : DTS
    Format/Info : Digital Theater Systems
    Format profile : X / MA / Core
    Mode : 16
    Format settings, Endianness : Big
    Codec ID : A_DTS
    Duration : 2h 8mn
    Bit rate mode : Variable / Variable / Constant
    Bit rate : 4 231 Kbps / 4 231 Kbps / 1 509 Kbps
    Channel(s) : Object Based / 8 channels / 6 channels
    Channel positions : Object Based / Front: L C R, Side: L R, Back: L R, LFE / Front: L C R, Side: L R, LFE
    Sampling rate : / 48.0 KHz / 48.0 KHz
    Frame rate : 93.750 fps (512 spf)
    Bit depth : / 24 bits / 24 bits
    Compression mode : / Lossless / Lossy
    Stream size : 3.79 GiB (8%)
    Title : DTS:X / 7.1 / 48 kHz / 4231 kbps / 24-bit
    Language : English
    Default : No
    Forced : No
    
    
    Text #1
    ID : 4
    Format : PGS
    Muxing mode : zlib
    Codec ID : S_HDMV/PGS
    Codec ID/Info : Picture based subtitle format used on BDs/HD-DVDs
    Duration : 2h 6mn
    Bit rate : 172 bps
    Count of elements : 17
    Stream size : 160 KiB (0%)
    Title : Forced
    Language : French
    Default : Yes
    Forced : Yes
    
    
    Text #2
    ID : 5
    Format : PGS
    Muxing mode : zlib
    Codec ID : S_HDMV/PGS
    Codec ID/Info : Picture based subtitle format used on BDs/HD-DVDs
    Duration : 2h 6mn
    Bit rate : 19.4 Kbps
    Count of elements : 2238
    Stream size : 17.5 MiB (0%)
    Language : French
    Default : No
    Forced : No
    
    
    Text #3
    ID : 6
    Format : PGS
    Muxing mode : zlib
    Codec ID : S_HDMV/PGS
    Codec ID/Info : Picture based subtitle format used on BDs/HD-DVDs
    Duration : 2h 7mn
    Bit rate : 35.3 Kbps
    Count of elements : 3541
    Stream size : 32.1 MiB (0%)
    Title : SDH
    Language : English
    Default : No
    Forced : No
    
    
    Text #4
    ID : 7
    Format : PGS
    Muxing mode : zlib
    Codec ID : S_HDMV/PGS
    Codec ID/Info : Picture based subtitle format used on BDs/HD-DVDs
    Duration : 2h 6mn
    Bit rate : 23.7 Kbps
    Count of elements : 2498
    Stream size : 21.4 MiB (0%)
    Title : Castilian
    Language : Spanish
    Default : No
    Forced : No
    
    
    Text #5
    ID : 8
    Format : PGS
    Muxing mode : zlib
    Codec ID : S_HDMV/PGS
    Codec ID/Info : Picture based subtitle format used on BDs/HD-DVDs
    Duration : 2h 6mn
    Bit rate : 23.9 Kbps
    Count of elements : 2590
    Stream size : 21.6 MiB (0%)
    Language : Catalan
    Default : No
    Forced : No
    
    
    Text #6
    ID : 9
    Format : PGS
    Muxing mode : zlib
    Codec ID : S_HDMV/PGS
    Codec ID/Info : Picture based subtitle format used on BDs/HD-DVDs
    Duration : 2h 6mn
    Bit rate : 20.4 Kbps
    Count of elements : 1705
    Stream size : 18.4 MiB (0%)
    Language : Dutch
    Default : No
    Forced : No
    
    
    Text #7
    ID : 10
    Format : PGS
    Muxing mode : zlib
    Codec ID : S_HDMV/PGS
    Codec ID/Info : Picture based subtitle format used on BDs/HD-DVDs
    Duration : 2h 6mn
    Bit rate : 21.3 Kbps
    Count of elements : 1907
    Stream size : 19.3 MiB (0%)
    Language : Danish
    Default : No
    Forced : No
    
    
    Text #8
    ID : 11
    Format : PGS
    Muxing mode : zlib
    Codec ID : S_HDMV/PGS
    Codec ID/Info : Picture based subtitle format used on BDs/HD-DVDs
    Duration : 2h 6mn
    Bit rate : 19.9 Kbps
    Count of elements : 2146
    Stream size : 18.0 MiB (0%)
    Language : Finnish
    Default : No
    Forced : No
    
    
    Text #9
    ID : 12
    Format : PGS
    Muxing mode : zlib
    Codec ID : S_HDMV/PGS
    Codec ID/Info : Picture based subtitle format used on BDs/HD-DVDs
    Duration : 2h 6mn
    Bit rate : 19.4 Kbps
    Count of elements : 2291
    Stream size : 17.6 MiB (0%)
    Language : Norwegian
    Default : No
    Forced : No
    
    
    Text #10
    ID : 13
    Format : PGS
    Muxing mode : zlib
    Codec ID : S_HDMV/PGS
    Codec ID/Info : Picture based subtitle format used on BDs/HD-DVDs
    Duration : 2h 6mn
    Bit rate : 23.2 Kbps
    Count of elements : 2303
    Stream size : 21.0 MiB (0%)
    Language : Swedish
    Default : No
    Forced : No
    
    
    Text #11
    ID : 14
    Format : PGS
    Muxing mode : zlib
    Codec ID : S_HDMV/PGS
    Codec ID/Info : Picture based subtitle format used on BDs/HD-DVDs
    Duration : 2h 6mn
    Bit rate : 24.6 Kbps
    Count of elements : 2340
    Stream size : 22.3 MiB (0%)
    Title : Iberian
    Language : Portuguese
    Default : No
    Forced : No
    
    
    Text #12
    ID : 15
    Format : PGS
    Muxing mode : zlib
    Codec ID : S_HDMV/PGS
    Codec ID/Info : Picture based subtitle format used on BDs/HD-DVDs
    Duration : 2h 6mn
    Bit rate : 27.4 Kbps
    Count of elements : 2538
    Stream size : 24.7 MiB (0%)
    Language : Greek
    Default : No
    Forced : No
    
    
    Text #13
    ID : 16
    Format : PGS
    Muxing mode : zlib
    Codec ID : S_HDMV/PGS
    Codec ID/Info : Picture based subtitle format used on BDs/HD-DVDs
    Duration : 2h 6mn
    Bit rate : 26.3 Kbps
    Count of elements : 2583
    Stream size : 23.8 MiB (0%)
    Language : Icelandic
    Default : No
    Forced : No
    
    
    Menu
    00:00:00.000 : en:Chapter 1
    00:07:13.224 : en:Chapter 2
    00:12:01.554 : en:Chapter 3
    00:17:17.745 : en:Chapter 4
    00:21:17.193 : en:Chapter 5
    00:28:49.811 : en:Chapter 6
    00:35:04.686 : en:Chapter 7
    00:40:51.574 : en:Chapter 8
    00:46:32.498 : en:Chapter 9
    00:52:04.997 : en:Chapter 10
    01:00:59.197 : en:Chapter 11
    01:06:50.256 : en:Chapter 12
    01:11:07.638 : en:Chapter 13
    01:17:21.095 : en:Chapter 14
    01:26:55.210 : en:Chapter 15
    01:33:01.493 : en:Chapter 16
    01:42:55.878 : en:Chapter 17
    01:50:01.553 : en:Chapter 18
    01:54:56.223 : en:Chapter 19
    01:58:37.986 : en:Chapter 20
    
    
    eac3to (Eml HDTeam)
    http://pastebin.com/atgD7efs
    eac3to (TERMiNAL)
    http://pastebin.com/UfxcscN6
    BDInfo (Eml HDTeam)
    http://pastebin.com/tQvrm8Hd
    BDInfo (TERMiNAL)
    http://pastebin.com/pU4yKXV0

    ** Contenu caché pour pouvoir voir les liens caché: Répondre ou Merci,**

  2. #2
    Avatar de Cylou62
    Inscrit
    septembre 2018
    Messages
    3
    Pouvoir de réputation
    0

    Par défaut Re : Jurassic.World.Fallen.Kingdom.2018.MULTi.TRUEFRENC H.2160p.BluRay.Remux.HEVC.DTS-X.7.1-PORTAX

    merci

  3. #3
    Avatar de sebcar62
    Inscrit
    avril 2014
    Messages
    5
    Pouvoir de réputation
    0

    Par défaut Re : Jurassic.World.Fallen.Kingdom.2018.MULTi.TRUEFRENC H.2160p.BluRay.Remux.HEVC.DTS-X.7.1-PORTAX

    Merci

Informations du sujet

Utilisateur(s) parcourant ce sujet

il y a actuellement 1 utilisateur(s) parcourant ce sujet. (0 membre(s) et 1 visiteur(s))

Sujets similaires

  1. [Uploaded] Jurassic.World.Fallen.Kingdom.2018.3D.MULTi.COMPLE TE.BLURAY-COJONUDO
    Par Traxtorm dans le forum Télécharger Films BLURAY 3D
    Réponses: 0
    Dernier message: 04/10/2018, 10h51
  2. [Uploaded] Jurassic.World.Fallen.Kingdom.2018.3D.COMPLETE.BLU RAY-PCH
    Par Traxtorm dans le forum Télécharger Films BLURAY 3D
    Réponses: 4
    Dernier message: 30/09/2018, 13h58
  3. [Uploaded] Jurassic.World.Fallen.Kingdom.2018.MULTI.COMPLETE. BLURAY-BD4U
    Par Traxtorm dans le forum Télécharger Films Qualité COMPLETE FULL BLURAY
    Réponses: 3
    Dernier message: 29/09/2018, 14h21
  4. [Uptobox] Jurassic.World.Fallen.Kingdom.2018.MULTi.TRUEFRENC H.1080p.BluRay.Remux.AVC.DTS-X.7.1-PORTAX
    Par GamePC dans le forum Télécharger Films Qualité BLURAY 720p-->1080P
    Réponses: 0
    Dernier message: 29/09/2018, 10h09
  5. [Uptobox] Solo.A.Star.Wars.Story.2018.MULTi.TRUEFRENCH.2160p .BluRay.Remux.HEVC.TrueHD.7.1-PORTAX
    Par GamePC dans le forum Télécharger Films Qualité UltraHD 4K
    Réponses: 0
    Dernier message: 27/09/2018, 10h46

Liens sociaux

Règles des messages

  • Vous ne pouvez pas créer de sujets
  • Vous ne pouvez pas répondre aux sujets
  • Vous ne pouvez pas importer de fichiers joints
  • Vous ne pouvez pas éditer vos messages
  •  
  • Les BB codes sont Activés
  • Les Smileys sont Activés
  • Le BB code [IMG] est Activé
  • Le code [VIDEO] est Activé
  • Le code HTML est Désactivé
Régie publicitaire Pubdirecte
Votre site en popunder ici